手机版 | 登陆 | 注册 | 留言 | 设首页 | 加收藏
当前位置: 网站首页 > 值得一看 > 电影 > 文章 当前位置: 电影 > 文章

异形魔怪/从地心窜出Tremors.1990.1080p.BluRay.x264.DTS-FGT8.72GB

时间:2021-12-10    点击: 次    来源:网络    作者:影视剧组 - 小 + 大



译  名 异形魔怪/从地心窜出/来自地底深处/深渊异形/震颤
片  名 Tremors
年  代 1990
产  地 美国
类  别 喜剧 / 恐怖
语  言 英语
上映日期 1990-01-19(美国)
IMDb评分 7.1/10 from 117403 users
IMDb链接 https://www.imdb.com/title/tt0100814/
豆瓣评分 7.1/10 from 8631 users
豆瓣链接 https://movie.douban.com/subject/1292599/
片  长 96 分钟
导  演 罗恩·安德伍德 Ron Underwood
编  剧 布伦特·马多克 Brent Maddock / 罗恩·安德伍德 Ron Underwood / S·S·威尔逊 S.S. Wilson
主  演 凯文·贝肯 Kevin Bacon
      弗莱德·沃德 Fred Ward
      Finn Carter
      迈克尔·格罗斯 Michael Gross
      瑞芭·麦肯泰尔 Reba McEntire
      Robert Jayne
      夏洛特·斯图尔特 Charlotte Stewart
      托尼·吉纳罗 Tony Genaro
      阿丽亚娜·理查兹 Ariana Richards
      黄自强 Victor Wong
      Sunshine Parker
      康拉德·巴赫曼 Conrad Bachmann
      比比·贝什 Bibi Besch
      汤姆·伍德鲁夫 Tom Woodruff Jr.

标  签 美国 | 怪物 | 恐怖 | 科幻 | 惊悚 | 喜剧 | 1990 | 美国电影

简  介 

  在一个名为“完美”的宁静小镇上,米奇(凯文·贝肯 Kevin Bacon 饰)和死党巴斯特(弗莱德·沃德 Fred Ward 饰)又度过了属于他们的平静一天。对于在这个无趣的小镇里从事着一份又一份没有前途,仅能糊口的工作这一事实,两个血气方刚的年轻人感到十分无奈和困扰。终于,他们决定要走出完美镇,开始他们多姿多彩的新生活,而就在此时,通向镇外的唯一一条公路莫名塌陷了,某些不详的征兆开始显现。
  
  早在数星期之前,镇上发生了家畜神秘失踪的恐怖事件,同时,地质系学生蕾贝卡( 芬妮·卡特 Finn Carter 饰)发现小镇的地壳运动十分异常。现在,众人终于将这些纷乱的线索拼凑到了一起,在大家的脚下,黑不见光的地底,究竟是什么在蠢蠢欲动?

 

Video
ID : 1
Format : AVC
Format/Info : Advanced Video Codec
Format profile : High@L4.1
Format settings : CABAC / 4 Ref Frames
Format settings, CABAC : Yes
Format settings, Reference frames : 4 frames
Codec ID : V_MPEG4/ISO/AVC
Duration : 1 h 35 min
Bit rate : 11.5 Mb/s
Width : 1 920 pixels
Height : 1 040 pixels
Display aspect ratio : 1.85:1
Frame rate mode : Constant
Frame rate : 23.976 FPS
Color space : YUV
Chroma subsampling : 4:2:0
Bit depth : 8 bits
Scan type : Progressive
Bits/(Pixel*Frame) : 0.241
Stream size : 7.71 GiB (88%)
Title : Tremors.1990.1080p.BluRay.x264.DTS-FGT
Writing library : x264 core 104 r1703 cd21d05
Encoding settings : cabac=1 / ref=4 / deblock=1:-3:-3 / analyse=0x3:0x113 / me=umh / subme=9 / psy=1 / psy_rd=1.05:0.10 / mixed_ref=1 / me_range=32 / chroma_me=1 / trellis=2 / 8x8dct=1 / cqm=0 / deadzone=21,11 / fast_pskip=0 / chroma_qp_offset=-2 / threads=12 / sliced_threads=0 / nr=0 / decimate=1 / interlaced=0 / constrained_intra=0 / bframes=5 / b_pyramid=2 / b_adapt=2 / b_bias=0 / direct=3 / weightb=1 / open_gop=0 / weightp=2 / keyint=250 / keyint_min=23 / scenecut=40 / intra_refresh=0 / rc_lookahead=60 / rc=2pass / mbtree=1 / bitrate=11547 / ratetol=2.0 / qcomp=0.70 / qpmin=10 / qpmax=51 / qpstep=4 / cplxblur=20.0 / qblur=0.5 / vbv_maxrate=50000 / vbv_bufsize=50000 / ip_ratio=1.40 / aq=1:0.90 / nal_hrd=none
Language : English
Default : Yes
Forced : No

Audio
ID : 2
Format : DTS
Format/Info : Digital Theater Systems
Codec ID : A_DTS
Duration : 1 h 35 min
Bit rate mode : Constant
Bit rate : 1 509 kb/s
Channel(s) : 6 channels
Channel layout : C L R Ls Rs LFE
Sampling rate : 48.0 kHz
Frame rate : 93.750 FPS (512 SPF)
Bit depth : 24 bits
Compression mode : Lossy
Stream size : 1.01 GiB (12%)
Title : Tremors.1990.1080p.BluRay.x264.DTS-FGT
Language : English
Default : Yes
Forced : No


上一篇:[欧美][BT]变形黑侠[中文字幕].Darkman.1990.1080p.BluRay.DTS.x265-10bit-10007@BBQDD..

下一篇:[智能性爱机器人][HD-MP4/1G][韩语][720P]

鄂ICP备14002174号  |   QQ:68872230  |  地址:本站资源下载密码统一为“9682”  |  电话:12345678910  |