手机版 | 登陆 | 注册 | 留言 | 设首页 | 加收藏
当前位置: 网站首页 > 欧美片 > 文章 当前位置: 欧美片 > 文章

变形黑侠[中文字幕].Darkman.1990.1080p.BluRay.DTS.x265-10bit-10007@BBQDDQ.COM 11.44GB

时间:2021-07-15    点击: 次    来源:网络    作者:影视剧组 - 小 + 大


◎译  名 变形黑侠 / 魔侠震天雷(台) / 隐形黑侠
◎片  名 Darkman
◎年  代 1990
◎产  地 美国
◎类  别 动作 / 科幻 / 惊悚 / 犯罪
◎语  言 英语
◎上映日期 1990-08-24
◎IMDb链接 https://www.imdb.com/title/tt0099365/
◎豆瓣评分 6.6/10 (1377人评价)
◎豆瓣链接 https://movie.douban.com/subject/1300209/
◎片  长 96 分钟
◎导  演 山姆·雷米 Sam Raimi (id:1027159)
◎编  剧 山姆·雷米 Sam Raimi (id:1027159)
      查克·费尔 Chuck Pfarrer (id:1294429)
◎演  员 连姆·尼森 Liam Neeson (id:1031220)
      弗兰西斯·麦克多蒙德 Frances McDormand (id:1010548)
      科林·弗瑞尔斯 Colin Friels (id:1027984)
      拉里·德雷克 Larry Drake (id:1081024)
      丹·希克斯 Dan Hicks (id:1096157)
      泰德·雷米 Ted Raimi (id:1036535)
      Nicholas Worth Nicholas Worth (id:1055139)
      阿隆·鲁斯汀 Aaron Lustig (id:1116537)
      布鲁斯·坎贝尔 Bruce Campbell (id:1069816)
      乔尔·科恩 Joel Coen (id:1054517)
      伊桑·科恩 Ethan Coen (id:1054401)
      尼尔·麦克唐纳 Neal McDonough (id:1031878)
      布里奇特·霍夫曼 Bridget Hoffman (id:1419993)
      托尼·加德纳 Tony Gardner (id:1284564)
      Carl Bresk Carl Bresk (id:1074772)
      威廉·迪尔 William Dear (id:1282121)
      田中通教授 Professor Toru Tanaka (id:1157875)
      斯科特·斯皮格尔 Scott Spiegel (id:1014264)
      肖恩·丹尼尔 Sean Daniel (id:1023446)
      约翰·兰迪斯 John Landis (id:1025259)
      珍妮·艾加特 Jenny Agutter (id:1036466)
      约翰·卡梅伦 John Cameron (id:1073995)
      杰西·劳伦斯 Jessie Lawrence Ferguson (id:1085331)
      尤利乌斯?哈里斯 Julius Harris (id:1097756)
      Craig Hosking Craig Hosking (id:1100422)
      纳丹·晶 Nathan Jung (id:1103092)
      威廉·拉斯蒂格 William Lustig (id:1007207)
      丹尼·艾夫曼 Danny Elfman (id:1019059)
      比尔·波普 Bill Pope (id:1018460)
      巴德·S·史密斯 Bud S. Smith (id:1297850)
      David Stiven David Stiven (id:1298471)
      Randy Ser Randy Ser (id:1297224)
      Phil Dagort Phil Dagort (id:1035685)
      Julie Kaye Fanton Julie Kaye Fanton (id:1283428)
      Grania Preston Grania Preston (id:1294875)
      Roland Blancaflor Roland Blancaflor (id:1064418)
      托尼·加德纳 Tony Gardner (id:1284564)
      Larry Hamlin Larry Hamlin (id:1285916)
      约翰·卡梅伦 John Cameron (id:1073995)
      Paul Gentry Paul Gentry (id:1004084)
      Rick Rische Rick Rische (id:1148188)
      威廉·梅萨 William Mesa (id:1291905)
      Michael Pangrazio Michael Pangrazio (id:1293881)
      Tim Donahue Tim Donahue (id:1282562)
      罗伯特·斯科塔克 Robert Skotak (id:1297751)
      克莱格·巴朗 Craig Barron (id:1277981)
      Jerry Macaluso Jerry Macaluso (id:1013096)
◎标  签 科幻 / 美国 / 动作 / 犯罪 / 1990 / 美国电影 / 漫画改編 / Sam_Raimi
◎简  介
  经过多年的潜心研究,培顿博士(连姆·尼森 Liam Neeson 饰)终于研制出了人造皮肤,可是,这种人造皮肤有一个致命的弱点,那就是长时间的阳光照射会使它变质腐坏。一群歹徒盯上了佩顿博士的研究,为了得到这珍贵的发明,他们不惜炸毁了实验室。尽管培顿博士死里逃生,但他的全身皮肤严重毁损已成为了事实。 
治疗所带来的痛苦和副作用让佩顿博士的内心充满了愤怒,怀揣着复仇的信念,他逃出了医院。利用自己所发明的人造皮肤,佩顿博士有了新的面孔,与此同时,一个新的超级英雄也就此诞生。在罪犯们的眼中,培顿博士是令人闻风丧胆的凶神恶煞,可在昔日爱人的面前,佩顿博士却感受到了久违的悲伤和痛苦。

General
Unique ID : 55535952116494232644040204919592452901 (0x29C7D5D757C55028E052A905F5180325)
Complete name : Darkman.1990.1080p.BluRay.DTS.x265-10bit-10007@BBQDDQ.COM.mkv
Format : Matroska
Format version : Version 4
File size : 11.4 GiB
Duration : 1 h 35 min
Overall bit rate : 17.2 Mb/s
Movie name : Darkman 1990 1080p BluRay DTS x265-10bit-10007@BBQDDQ.COM
Encoded date : UTC 2021-07-15 02:21:43
Writing application : mkvmerge v38.0.0 ('The Silent Type') 64-bit
Writing library : libebml v1.3.9 + libmatroska v1.5.2
Video
ID : 1
Format : HEVC
Format/Info : High Efficiency Video Coding
Format profile : Main 10@L5.1@High
Codec ID : V_MPEGH/ISO/HEVC
Duration : 1 h 35 min
Bit rate : 15.7 Mb/s
Width : 1 920 pixels
Height : 1 080 pixels
Display aspect ratio : 16:9
Frame rate mode : Constant
Frame rate : 23.976 (24000/1001) FPS
Color space : YUV
Chroma subsampling : 4:2:0
Bit depth : 10 bits
Bits/(Pixel*Frame) : 0.315
Stream size : 10.4 GiB (91%)
Title : veryzayin@HDSky
Writing library : x265 - H.265/HEVC codec
Default : Yes
Forced : No
Audio
ID : 2
Format : DTS
Format/Info : Digital Theater Systems
Codec ID : A_DTS
Duration : 1 h 35 min
Bit rate mode : Constant
Bit rate : 1 509 kb/s
Channel(s) : 2 channels
Channel layout : L R
Sampling rate : 48.0 kHz
Frame rate : 93.750 FPS (512 SPF)
Bit depth : 24 bits
Compression mode : Lossy
Stream size : 1.00 GiB (9%)
Title : English
Language : English
Default : Yes
Forced : No
Text #1
ID : 3
Format : PGS
Muxing mode : zlib
Codec ID : S_HDMV/PGS
Codec ID/Info : Picture based subtitle format used on BDs/HD-DVDs
Duration : 1 h 28 min
Bit rate : 22.0 kb/s
Count of elements : 1640
Stream size : 13.9 MiB (0%)
Title : CHS
Language : Chinese
Default : Yes
Forced : No
Text #2
ID : 4
Format : PGS
Muxing mode : zlib
Codec ID : S_HDMV/PGS
Codec ID/Info : Picture based subtitle format used on BDs/HD-DVDs
Duration : 1 h 28 min
Bit rate : 22.4 kb/s
Count of elements : 1640
Stream size : 14.2 MiB (0%)
Title : CHT
Language : Chinese
Default : No
Forced : No
Menu
00:00:00.000 : en:Chapter 01
00:10:30.004 : en:Chapter 02
00:19:34.965 : en:Chapter 03
00:29:46.952 : en:Chapter 04
00:40:33.014 : en:Chapter 05
00:49:55.951 : en:Chapter 06
00:59:12.924 : en:Chapter 07
01:09:02.889 : en:Chapter 08
01:19:30.891 : en:Chapter 09
01:29:39.916 : en:Chapter 10

      下载地址

上一篇:[白头神探(1-3集)][BD-RMVB/3.3G][中英字幕][720P高清]

下一篇:切尔诺贝利[中文字幕].Chernobyl.2021.1080p.BluRay.DTS.x265-10bit-10007@BBQDDQ.COM 7.97G..

推荐阅读
鄂ICP备14002174号-3  |   QQ: 68872230  |  地址:湖北武汉  |  电话:12345678  |